Code:
General

Format                           : AVI
Format/Info                      : Audio Video Interleave
File size                        : 700 MiB
Duration                         : 2h 30mn
Overall bit rate                 : 650 Kbps


Video
ID                               : 0
Format                           : MPEG-4 Visual
Format profile                   : Simple@L3
Format settings, BVOP            : No
Format settings, QPel            : No
Format settings, GMC             : No warppoints
Format settings, Matrix          : Default (H.263)
Codec ID                         : XVID
Codec ID/Hint                    : XviD
Duration                         : 2h 30mn
Bit rate                         : 557 Kbps
Width                            : 624 pixels
Height                           : 256 pixels
Display aspect ratio             : 2.40:1
Frame rate                       : 29.970 fps
Color space                      : YUV
Chroma subsampling               : 4:2:0
Bit depth                        : 8 bits
Scan type                        : Progressive
Bits/(Pixel*Frame)               : 0.116
Stream size                      : 599 MiB (86%)
Writing library                  : XviD 1.1.2 (UTC 2006-11-01)

Audio
ID                               : 1
Format                           : MPEG Audio
Format version                   : Version 1
Format profile                   : Layer 3
Mode                             : Joint stereo
Mode extension                   : MS Stereo
Codec ID                         : 55
Codec ID/Hint                    : MP3
Duration                         : 2h 30mn
Bit rate mode                    : Constant
Bit rate                         : 80.0 Kbps
Channel(s)                       : 2 channels
Sampling rate                    : 44.1 KHz
Stream size                      : 86.1 MiB (12%)
Alignment                        : Split accross interleaves
Interleave, duration             : 26 ms (0.78 video frame)

















SINGLE DIRECT FAST LINKS



Code:
http://www.uploadable.ch/file/rgfm54HsrEfg/Idhu.Kathirvelan.Kadhal.2014.Xvid.DVDSCR.700Mb-TTT.avi
Code:
http://rapidgator.net/file/da4f5903466992091342ac90a260e47b/Idhu.Kathirvelan.Kadhal.2014.Xvid.DVDSCR.700Mb-TTT.avi.html
Code:
http://uploaded.net/file/q0aykxi4/Idhu.Kathirvelan.Kadhal.2014.Xvid.DVDSCR.700Mb-TTT.avi

Code:
http://lumfile.com/0l4xnnc9tkyn/Idhu.Kathirvelan.Kadhal.2014.Xvid.DVDSCR.700Mb-TTT.avi.html